К-9: Собачья работа / K-9 (Род Дэниэл / Rod Daniel) [1989, США, Боевик, комедия, криминал, BDRip 1080p] MVO (ОРТ) + 2х DVO (Премьер Видео, НТВ) + 3x AVO + 2х Ukr + Original Eng + Sub (2x Rus, Eng)

Страницы:  1

Ответить
Автор
Сообщение

порошков

Стажер-модератор

Стаж: 10 лет 4 месяца

Сообщений: 13613

порошков · 29-Май-17 09:02 (2 года назад, ред. 20-Фев-19 19:07)

К-9: Собачья работа / K-9
Страна: США
Жанр: Боевик, комедия, криминал
Год выпуска: 1989
Продолжительность: 01:41:23
Перевод: Профессиональный (двухголосый закадровый) | Премьер Видео / UNIVERSAL RUS
Перевод: Профессиональный (двухголосый, закадровый) | НТВ
Перевод: Профессиональный (многоголосый, закадровый) | ОРТ
Перевод: Авторский одноголосый | А.Гаврилов (ранний)
Перевод: Авторский одноголосый | А.Гаврилов (поздний)
Перевод: Одноголосый закадровый | В.Горчаков
Субтитры: Russian (R5),Russian, English
Оригинальная аудиодорожка: английский
Режиссер: Род Дэниэл / Rod Daniel
В ролях: Джеймс Белуши, Мел Харрис, Кевин Тай, Эд О’Нил, Джерри Ли, Джеймс Хэнди, Дэниэл Дэвис, Коттер Смит,Джон Снайдер, Прюитт Тэйлор Винс
Описание: Веселый полицейский-выдумщик Майкл Дули попал в беду: его пытается убить известный наркодилер за то, что тот все время вмешивается в бизнес. Друг полицейского дает ему собаку по имени Джерри Ли, специально натасканную на запах наркотиков. С помощью пса Майкл надеется поймать преступника и разоблачить его, но не так все просто.
У Джерри Ли свой характер и он работает только когда пожелает. К тому же собака принимает радостное участие в поломке машины Майкла, разгроме дома и его личной жизни…
Релиз:

Качество видео: BDRip | Рип от SbR
Формат видео: MKV
Видео: 1920x1040 at 23.976 fps, [email protected], ~ 17500 kbps avg
Аудио 1: Russian: 48 kHz, AC3, 2/0 (L,R) ch, ~192.00 kbps avg |Двухголосый закадровый, |Премьер Видео / UNIVERSAL RUS|
Аудио 2: Russian: 48 kHz, AC3, 2/0 (L,R) ch, ~192.00 kbps avg |Двухголосый закадровый, |НТВ|
Аудио 3: Russian: 48 kHz, AC3, 2/0 (L,R) ch, ~192.00 kbps avg |Многоголосый закадровый, |ОРТ|
Аудио 4: Russian: 48 kHz, AC3, 2/0 (L,R) ch, ~192.00 kbps avg |Гаврилов ранний|
Аудио 5: Russian: 48 kHz/16-bit, DTS 2.0, ~1509. kbps avg |Гаврилов поздний|
Аудио 6: Russian: 48 kHz/16-bit, DTS 2.0, ~1509. kbps avg |Горчаков|
Аудио 7: Ukrainian: 48 kHz/16-bit, DTS 2.0, ~1509. kbps avg |Двухголосый закадровый, |т/к Новий канал|
Аудио 8: Ukrainian: 48 kHz, AC3, 2/0 (L,R) ch, ~192.00 kbps avg |Двухголосый закадровый, |ТРК Україна|
Аудио 9: English: 48 kHz/16-bit, FLAC 2.0, ~665. kbps avg
Сэмпл

Дополнительно
Цитата:
  • Сохранены оригинальные главы как на Blu-ray.
  • За дорогу №1 спасибо edich2, и riprip .
  • За дорогу №2 спасибо пользователю bora86bora (рутрекер)
  • За дорогу №3 спасибо пользователю qwer123 (рутрекер)
  • За дорогу №5 ресурсу Нurtom и пользывателям RAD0N
  • За дорогу №6 спасибо пользователю anton966 (рутрекер)
  • За вторые русские субтитры спасибо DENnv
  • Дороги №4,7,8 были получены путем наложения чистых голосов на L,R каналы оригинала.
MediaInfo
Код:
Format                      : Matroska
Format version              : Version 4 / Version 2
File size                   : 16.7 GiB
Duration                    : 1 h 41 min
Overall bit rate mode       : Variable
Overall bit rate            : 23.7 Mb/s
Encoded date                : UTC 2017-05-29 03:11:53
Writing application         : mkvmerge v12.0.0 ('Trust / Lust') 64bit
Writing library             : libebml v1.3.4 + libmatroska v1.4.5
Cover                       : Yes
Attachments                 : cover.jpg
Video
ID                          : 13
Format                      : AVC
Format/Info                 : Advanced Video Codec
Format profile              : [email protected]
Format settings, CABAC      : Yes
Format settings, ReFrames   : 4 frames
Codec ID                    : V_MPEG4/ISO/AVC
Duration                    : 1 h 41 min
Nominal bit rate            : 17.5 Mb/s
Width                       : 1 920 pixels
Height                      : 1 040 pixels
Display aspect ratio        : 1.85:1
Frame rate mode             : Constant
Frame rate                  : 23.976 (23976/1000) FPS
Color space                 : YUV
Chroma subsampling          : 4:2:0
Bit depth                   : 8 bits
Scan type                   : Progressive
Bits/(Pixel*Frame)          : 0.366
Writing library             : x264 core 148 r2762+56 6284cf3 t_mod_Custom [[email protected] X86_64]
Encoding settings           : cabac=1 / ref=4 / deblock=1:-3:-3 / analyse=0x3:0x133 / me=umh / subme=10 / psy=1 / fade_compensate=0.00 / psy_rd=1.00:0.05 / mixed_ref=1 / me_range=32 / chroma_me=1 / trellis=2 / 8x8dct=1 / cqm=0 / deadzone=21,11 / fast_pskip=1 / chroma_qp_offset=-3 / threads=6 / lookahead_threads=1 / sliced_threads=0 / nr=0 / decimate=1 / interlaced=0 / bluray_compat=0 / constrained_intra=0 / fgo=0 / bframes=8 / b_pyramid=2 / b_adapt=2 / b_bias=0 / direct=3 / weightb=1 / open_gop=0 / weightp=2 / keyint=250 / keyint_min=23 / scenecut=40 / intra_refresh=0 / rc=2pass / mbtree=0 / bitrate=17500 / ratetol=1.0 / qcomp=0.60 / qpmin=0:0:0 / qpmax=69:69:69 / qpstep=4 / cplxblur=20.0 / qblur=0.5 / ip_ratio=1.30 / pb_ratio=1.20 / aq=3:0.65 / aq-sensitivity=10.00 / aq-factor=1.00:1.00:1.00 / aq2=1:0.55 / aq2-sensitivity=15.00 / aq2-factor=1.00:1.00:1.00 / aq3=1:[0.55:0.55]:[0.55:0.55]:[0.55:0.55]:[0.55:0.55] / aq3-sensitivity=10.00 / aq3-factor=[1.00:1.00]:[1.00:1.00]:[1.00:1.00] / aq3-boundary=192:64:24
Language                    : English
Default                     : Yes
Forced                      : No
Color range                 : Limited
Matrix coefficients         : BT.709
Audio #1
ID                          : 1
Format                      : AC-3
Format/Info                 : Audio Coding 3
Format settings, Endianness : Big
Codec ID                    : A_AC3
Duration                    : 1 h 41 min
Bit rate mode               : Constant
Bit rate                    : 192 kb/s
Channel(s)                  : 2 channels
Channel positions           : Front: L R
Sampling rate               : 48.0 kHz
Frame rate                  : 31.250 FPS (1536 spf)
Bit depth                   : 16 bits
Compression mode            : Lossy
Stream size                 : 139 MiB (1%)
Title                       : Премьер Видео / UNIVERSAL RUS
Language                    : Russian
Service kind                : Complete Main
Default                     : Yes
Forced                      : No
Audio #2
ID                          : 2
Format                      : AC-3
Format/Info                 : Audio Coding 3
Format settings, Endianness : Big
Codec ID                    : A_AC3
Duration                    : 1 h 41 min
Bit rate mode               : Constant
Bit rate                    : 192 kb/s
Channel(s)                  : 2 channels
Channel positions           : Front: L R
Sampling rate               : 48.0 kHz
Frame rate                  : 31.250 FPS (1536 spf)
Bit depth                   : 16 bits
Compression mode            : Lossy
Stream size                 : 139 MiB (1%)
Title                       : Двухголосый закадровый, |НТВ
Language                    : Russian
Service kind                : Complete Main
Default                     : No
Forced                      : No
Audio #3
ID                          : 3
Format                      : AC-3
Format/Info                 : Audio Coding 3
Format settings, Endianness : Big
Codec ID                    : A_AC3
Duration                    : 1 h 41 min
Bit rate mode               : Constant
Bit rate                    : 192 kb/s
Channel(s)                  : 2 channels
Channel positions           : Front: L R
Sampling rate               : 48.0 kHz
Frame rate                  : 31.250 FPS (1536 spf)
Bit depth                   : 16 bits
Compression mode            : Lossy
Stream size                 : 139 MiB (1%)
Title                       : Многоголосый закадровый, |ОРТ
Language                    : Russian
Service kind                : Complete Main
Default                     : No
Forced                      : No
Audio #4
ID                          : 4
Format                      : AC-3
Format/Info                 : Audio Coding 3
Format settings, Endianness : Big
Codec ID                    : A_AC3
Duration                    : 1 h 41 min
Bit rate mode               : Constant
Bit rate                    : 192 kb/s
Channel(s)                  : 2 channels
Channel positions           : Front: L R
Sampling rate               : 48.0 kHz
Frame rate                  : 31.250 FPS (1536 spf)
Bit depth                   : 16 bits
Compression mode            : Lossy
Stream size                 : 139 MiB (1%)
Title                       : Одноголосый закадровый, |Гаврилов ранний
Language                    : Russian
Service kind                : Complete Main
Default                     : No
Forced                      : No
Audio #5
ID                          : 5
Format                      : DTS
Format/Info                 : Digital Theater Systems
Mode                        : 16
Format settings, Endianness : Big
Codec ID                    : A_DTS
Duration                    : 1 h 41 min
Bit rate mode               : Constant
Bit rate                    : 1 509 kb/s
Channel(s)                  : 2 channels
Channel positions           : Front: L R
Sampling rate               : 48.0 kHz
Frame rate                  : 93.750 FPS (512 spf)
Bit depth                   : 24 bits
Compression mode            : Lossy
Stream size                 : 1.07 GiB (6%)
Title                       : Одноголосый закадровый, |Гаврилов поздний
Language                    : Russian
Default                     : No
Forced                      : No
Audio #6
ID                          : 6
Format                      : DTS
Format/Info                 : Digital Theater Systems
Mode                        : 16
Format settings, Endianness : Big
Codec ID                    : A_DTS
Duration                    : 1 h 41 min
Bit rate mode               : Constant
Bit rate                    : 1 509 kb/s
Channel(s)                  : 2 channels
Channel positions           : Front: L R
Sampling rate               : 48.0 kHz
Frame rate                  : 93.750 FPS (512 spf)
Bit depth                   : 24 bits
Compression mode            : Lossy
Stream size                 : 1.07 GiB (6%)
Title                       : Одноголосый закадровый, |Горчаков
Language                    : Russian
Default                     : No
Forced                      : No
Audio #7
ID                          : 7
Format                      : DTS
Format/Info                 : Digital Theater Systems
Mode                        : 16
Format settings, Endianness : Big
Codec ID                    : A_DTS
Duration                    : 1 h 41 min
Bit rate mode               : Constant
Bit rate                    : 1 509 kb/s
Channel(s)                  : 2 channels
Channel positions           : Front: L R
Sampling rate               : 48.0 kHz
Frame rate                  : 93.750 FPS (512 spf)
Bit depth                   : 24 bits
Compression mode            : Lossy
Stream size                 : 1.07 GiB (6%)
Title                       : Двухголосый закадровый, |т/к Новий канал
Language                    : Ukrainian
Default                     : No
Forced                      : No
Audio #8
ID                          : 8
Format                      : AC-3
Format/Info                 : Audio Coding 3
Format settings, Endianness : Big
Codec ID                    : A_AC3
Duration                    : 1 h 41 min
Bit rate mode               : Constant
Bit rate                    : 192 kb/s
Channel(s)                  : 2 channels
Channel positions           : Front: L R
Sampling rate               : 48.0 kHz
Frame rate                  : 31.250 FPS (1536 spf)
Bit depth                   : 16 bits
Compression mode            : Lossy
Stream size                 : 139 MiB (1%)
Title                       : Двухголосый закадровый, |ТРК Україна
Language                    : Ukrainian
Service kind                : Complete Main
Default                     : No
Forced                      : No
Audio #9
ID                          : 9
Format                      : FLAC
Format/Info                 : Free Lossless Audio Codec
Codec ID                    : A_FLAC
Duration                    : 1 h 41 min
Bit rate mode               : Variable
Channel(s)                  : 2 channels
Channel positions           : Front: L R
Sampling rate               : 48.0 kHz
Bit depth                   : 16 bits
Writing library             : libFLAC 1.2.1 (UTC 2007-09-17)
Language                    : English
Default                     : No
Forced                      : No
Text #1
ID                          : 10
Format                      : UTF-8
Codec ID                    : S_TEXT/UTF8
Codec ID/Info               : UTF-8 Plain Text
Language                    : Russian
Default                     : No
Forced                      : No
Text #2
ID                          : 11
Format                      : UTF-8
Codec ID                    : S_TEXT/UTF8
Codec ID/Info               : UTF-8 Plain Text
Language                    : Russian
Default                     : No
Forced                      : No
Text #3
ID                          : 12
Format                      : UTF-8
Codec ID                    : S_TEXT/UTF8
Codec ID/Info               : UTF-8 Plain Text
Language                    : English
Default                     : No
Forced                      : No
Menu
00:00:00.000                : en:00:00:00.000
00:05:00.000                : en:00:05:00.000
00:10:00.000                : en:00:10:00.000
00:15:00.000                : en:00:15:00.000
00:20:00.000                : en:00:20:00.000
00:25:00.000                : en:00:25:00.000
00:30:00.000                : en:00:30:00.000
00:35:00.000                : en:00:35:00.000
00:40:00.000                : en:00:40:00.000
00:45:00.000                : en:00:45:00.000
00:50:00.000                : en:00:50:00.000
00:55:00.000                : en:00:55:00.000
01:00:00.000                : en:01:00:00.000
01:05:00.000                : en:01:05:00.000
01:10:00.000                : en:01:10:00.000
01:15:00.000                : en:01:15:00.000
01:20:00.000                : en:01:20:00.000
01:25:00.000                : en:01:25:00.000
01:30:00.000                : en:01:30:00.000
01:35:00.000                : en:01:35:00.000
01:40:00.000                : en:01:40:00.000
Скриншоты
Download
Для скачивания .torrent файлов необходима регистрация
Сайт не распространяет и не хранит электронные версии произведений, а лишь предоставляет доступ к создаваемому пользователями каталогу ссылок на торрент-файлы, которые содержат только списки хеш-сумм
[Профиль]  [ЛС] 

GhostDirewolf

Стаж: 5 лет 6 месяцев

Сообщений: 58


GhostDirewolf · 17-Мар-18 22:06 (спустя 9 месяцев)

не ну, сабы нельзя было более точно по таймингу сделать, а то появляются когда диалог уже закончен.
[Профиль]  [ЛС] 

порошков

Стажер-модератор

Стаж: 10 лет 4 месяца

Сообщений: 13613

порошков · 20-Фев-19 19:20 (спустя 11 месяцев)

GhostDirewolf писал(а):
75005727не ну, сабы нельзя было более точно по таймингу сделать, а то появляются когда диалог уже закончен.
Файл перезалит, поправлены субтитры.
[Профиль]  [ЛС] 

bot · 21-Фев-19 00:36 (спустя 5 часов)

Тема была перенесена из форума HD Video в форум Зарубежное кино (HD Video)
porvaliparus
 

Selena_a

Фильмографы

Стаж: 9 лет 2 месяца

Сообщений: 2462

Selena_a · 21-Фев-19 18:06 (спустя 22 часа, ред. 21-Фев-19 18:06)

порошков
а Неизвестный К-9 как же?) https://rutracker.org/forum/viewtopic.php?t=1483024
[Профиль]  [ЛС] 

порошков

Стажер-модератор

Стаж: 10 лет 4 месяца

Сообщений: 13613

порошков · 21-Фев-19 18:25 (спустя 18 мин., ред. 21-Фев-19 18:25)

Selena_a писал(а):
76905709порошков
а Неизвестный К-9 как же?) https://rutracker.org/forum/viewtopic.php?t=1483024
Ну сможете скачать и залить дорогу, тогда перезалью
Ну а вообще, у меня не ремукс, где собирают все дороги.
[Профиль]  [ЛС] 

karlll

Стаж: 10 лет 8 месяцев

Сообщений: 1388

karlll · 25-Май-19 09:55 (спустя 3 месяца 3 дня)

порошков
Selena_a
а Неизвестный Немец как же? https://www80.zippyshare.com/v/jCfU7zTd/file.html
[Профиль]  [ЛС] 
 
Ответить
Loading...
Error